#TITLE:Jive Into The NIght;
#SUBTITLE:;
#ARTIST:Cydney;
#TITLETRANSLIT:;
#SUBTITLETRANSLIT:;
#ARTISTTRANSLIT:;
#CREDIT:;
#BANNER:;
#BACKGROUND:;
#LYRICSPATH:;
#CDTITLE:;
#MUSIC:Jive Into the Night.mp3;
#MUSICLENGTH:115.885;
#OFFSET:0.320;
#SAMPLESTART:56.905;
#SAMPLELENGTH:12.000;
#SELECTABLE:YES;
#BPMS:0.000=170.055;
#STOPS:;
#BGCHANGES:;
#FIRSTBEAT:28.000;

#LASTBEAT:324.000;

#SONGFILENAME:Songs/ERICth The 3rd/Jive Into The Night/jive.sm;

#HASMUSIC:1;

#HASBANNER:0;


//---------------dance-single - MANIAC----------------
#NOTES:
     dance-single:
     MANIAC:
     hard:
     9:
     0.615,0.664,0.587,0.259,0.173,401.000,68.000,30.000,0.000,0.000:



0000
0000
0000
0000
,
0000
0000
0000
0000
,
0000
0000
0000
0000
,
0000
0000
0000
0000
,
0000
0000
0000
0000
,
0000
0000
0000
0000
,
0000
0000
0000
0000
,
2000
3000
0020
0030
,
0002
0023
0230
2300
,
3001
0000
0010
0000
0001
0000
0000
0000
0001
0010
0000
0010
0000
0000
0000
0000
,
0001
0000
0010
0000
0001
0000
0000
0000
0001
0010
0001
0010
0000
0000
0000
0000
,
1000
0000
0100
0000
1000
0000
0000
0000
1000
0100
0000
0100
0000
0000
0000
0000
,
1000
0000
0100
0000
1000
0000
0000
0000
1000
0100
1000
0100
0000
0000
0000
0000
,
0010
0000
0100
0000
0010
0000
0000
0000
0010
0100
0000
0100
0000
0000
0000
0000
,
0010
0000
0100
0000
0010
0000
0000
0000
0010
0100
0010
0100
0000
0000
0000
0000
,
2000
3100
1000
0000
0002
0103
0001
0000
,
1000
0000
0001
0000
1000
0001
1000
0001
1000
0000
0000
0000
1001
0000
0000
0000
,
1100
1001
0101
0000
,
0001
0100
0010
0100
0010
0100
0000
0000
,
0011
1001
1010
0000
,
0100
0000
0100
0010
0000
0001
0000
1000
0000
0001
0000
1000
0001
0000
0001
0000
,
1001
1001
1001
0000
,
1000
0100
0010
0100
0010
0100
0010
0000
,
0100
0000
0010
0000
0100
0000
0010
0000
0100
0010
0100
0010
0100
0000
0000
0000
,
0000
0000
1001
0000
0000
1001
0000
0000
2002
0000
0000
0000
0000
3003
0000
0000
,
1000
0010
1000
0010
0001
0010
0001
0010
,
1000
0010
1000
0010
0001
0010
1000
0000
,
1000
0100
1000
0100
0001
0100
0001
0100
,
1000
0100
1000
0100
0001
0100
1000
0000
,
0010
1000
0010
1000
0100
1000
0100
1000
,
0010
1000
0010
1000
0100
1000
0010
0000
,
1001
0000
0110
0000
1001
0000
1001
2002
,
0000
0000
0000
3003
,
0001
0010
0001
0010
0001
0100
0001
0100
,
0001
0010
0001
0010
0001
0100
0001
0000
,
0001
1000
0100
1000
0001
1000
0100
1000
,
0001
1000
0100
1000
0001
1001
0001
0000
,
1000
0010
1000
0001
1000
0010
1000
0001
,
1000
0010
1000
0001
1000
1010
1010
0000
,
1100
0000
1010
0000
0011
0000
0101
2002
,
0000
0000
0000
3003
,
1100
0000
1010
0000
1100
0000
0000
1000
,
0100
0010
0000
0002
0000
0013
0100
0100
,
0101
0000
0011
0000
0101
0000
2000
0002
,
3003
1000
0000
1000
0001
1000
0001
1000
,
1001
0000
1001
0000
1001
0000
0000
0001
,
0010
0100
0000
2000
0000
3100
0010
0100
,
0000
0000
1000
0000
0000
1000
0000
0000
1000
0000
0000
0000
0001
0000
2000
0000
,
3000
0000
0110
0000
0000
0110
0000
0000
0110
0000
0000
0000
0000
0000
0000
0000
,
2000
0000
0000
0000
,
0002
0000
0000
0000
0000
0000
0000
3003
,
0010
0000
0010
0000
,
0010
1000
0100
1000
,
2002
0000
0000
0000
,
0000
0000
0000
0000
0000
0000
0000
3003
,
1020
1000
1000
1030
,
1000
0100
0010
0100
1000
0100
0010
0000
,
0001
0000
0010
0000
0001
0000
0000
0000
0001
0010
0000
0010
0000
0000
0000
0000
,
0001
0000
0010
0000
0001
0000
0000
0000
0001
0010
0001
0010
0000
0000
0000
0000
,
1000
0000
0100
0000
1000
0000
0000
0000
1000
0100
0000
0100
0000
0000
0000
0000
,
1000
0000
0100
0000
1000
0000
0000
0000
1000
0100
1000
0100
0000
0000
0000
0000
,
0010
0000
0100
0000
0010
0000
0000
0000
0010
0100
0000
0100
0000
0000
0000
0000
,
0010
0000
0100
0000
0010
0000
0000
0000
0010
0100
0010
0100
0000
0000
0000
0000
,
2000
3100
1000
0000
0002
0103
0001
0000
,
1000
0000
0001
0000
1000
0001
1000
0001
1000
0000
0000
0000
1001
0000
0000
0000
,
1100
1100
1100
1100
,
1000
0100
0001
0100
0000
0100
1000
0001
,
0011
0000
0011
0000
0011
0000
0001
0200
,
1000
0000
1000
0300
1000
0100
0001
0000
,
0110
0110
0110
0110
,
0010
1000
0100
0010
0000
1000
1000
0001
,
1000
0100
0010
0001
0010
0100
1000
1001
,
0000
0000
0110
0000
0000
0110
0000
0000
1001
0000
0000
0000
0000
0000
0000
0000
,
1100
1010
1100
1001
,
1000
0100
0001
0100
0000
0100
1000
0001
,
0011
0000
1100
0000
0011
0000
0001
0200
,
1000
0000
1000
0300
1000
0100
0001
0000
,
0110
1001
0110
1001
,
0010
1000
0100
0010
0000
1000
1000
0001
,
1000
0100
0010
0001
0010
0100
1000
1001
,
2000
0000
0001
0000
0000
0001
0000
0000
0002
0000
0000
0000
0000
0000
0000
0000
,
3003
0000
0000
0000;

//---------------dance-single - ANOTHER----------------
#NOTES:
     dance-single:
     ANOTHER:
     medium:
     7:
     0.456,0.556,0.112,0.009,0.000,356.000,13.000,1.000,0.000,0.000:

0000
0000
0000
0000
,
0000
0000
0000
0000
,
0000
0000
0000
0000
,
0000
0000
0000
0000
,
0000
0000
0000
0000
,
0000
0000
0000
0000
,
0000
0000
0000
0000
,
0010
0000
0010
0000
,
0010
0010
0010
0010
,
1000
0100
0010
0000
1000
0100
0010
0000
,
1000
0100
0010
0000
0100
1000
0100
0000
,
1000
0100
0010
0000
1000
0100
0010
0000
,
1000
0100
0010
0000
1000
0100
1000
0000
,
0001
0010
0100
0000
0001
0010
0100
0000
,
0001
0010
0100
0000
0001
0010
0001
0000
,
0001
0010
0100
0000
0001
0010
0100
0000
,
0001
0001
0001
0001
,
1000
0100
0010
0000
,
0001
0000
1000
0000
0100
1000
0010
0000
,
0001
0001
0001
0100
,
0010
0001
1000
0001
,
0100
0010
0100
0000
,
0010
1000
0001
0010
,
0100
1000
0001
1000
,
0001
1000
0001
1000
0001
0000
0000
0000
,
1001
0100
1000
0010
,
1000
0100
1000
0010
1000
0000
0001
0000
,
0010
0000
0001
0000
0100
0001
0010
0000
,
0001
1000
0100
0010
0001
0000
0000
0000
,
0001
0100
0010
0100
,
0110
0001
1000
0100
,
0010
0000
0001
0000
0100
0000
1000
0001
,
0000
0000
0000
0000
,
1001
0000
0010
0000
1000
0100
0010
0000
,
0001
0000
0100
0000
0001
0100
0001
0000
,
0001
1000
0010
0100
,
0001
0100
0010
0100
0010
0000
0001
0000
,
1000
0100
0010
0001
,
1000
0010
0100
0010
,
0100
0000
0010
0000
0001
0000
1001
1001
,
0000
0010
0100
0000
,
1010
1010
1010
0000
,
0001
1000
0100
0010
,
0001
0010
0100
1000
0100
0000
0001
0000
,
0100
0000
0001
0000
0100
0001
0100
0000
,
0010
0010
0010
1000
,
0001
0010
0100
0010
0001
0010
0001
0000
,
0001
0000
1000
0010
1000
0000
0001
1000
,
0000
0001
0000
0001
0001
0000
0000
0000
,
1000
0010
1000
0001
,
1000
0100
0010
0001
,
0100
0001
1000
0001
,
0002
0000
1000
0000
1000
0000
1000
0003
,
0010
0100
0100
0010
,
0001
1000
0001
0010
,
0001
1000
0100
0010
0001
1000
0100
0010
,
0001
1000
0100
0010
0001
1000
0100
0010
,
0001
1000
0001
0000
1000
0100
1000
0000
,
0001
1000
0001
0000
0100
1000
0100
0000
,
0001
1000
0001
0000
0100
1000
0100
0000
,
0001
1000
0001
0000
1000
0100
1000
0000
,
0010
1000
0010
0000
1000
0100
1000
0000
,
0010
1000
0010
0000
1000
0100
1000
0000
,
0010
1000
0010
0000
1000
0100
1000
0000
,
0000
1001
0000
0000
1001
0000
0000
0000
,
1001
0010
1000
0100
,
0010
0001
1000
0100
,
0010
0001
1000
0100
,
0100
1000
0010
1000
0001
0100
0010
1000
,
0001
0000
0001
0000
0100
0010
0100
0001
,
0010
0001
0100
0001
0100
0001
0010
0001
,
1000
0001
0010
0100
1000
0001
1000
0001
,
0000
1001
0000
0000
1001
0000
0000
0000
,
0010
0000
0100
0000
0001
0010
0001
0000
,
0000
1000
0000
0001
0100
0000
0010
0000
,
1000
0000
0001
0000
0100
0010
0100
0000
,
0001
1000
0100
0001
0100
1000
0100
0000
,
0010
0100
0100
0100
,
0000
0100
1000
0000
0001
1000
0100
0000
,
0010
0000
0100
0000
1000
0000
0001
0010
,
0000
0001
0000
1000
0001
0000
0000
0000;

//---------------dance-single - BASIC----------------
#NOTES:
     dance-single:
     BASIC:
     easy:
     3:
     0.270,0.348,0.190,0.017,0.000,195.000,22.000,2.000,0.000,0.000:

0000
0000
0000
0000
,
0000
0000
0000
0000
,
0000
0000
0000
0000
,
0000
0000
0000
0000
,
0000
0000
0000
0000
,
0000
0000
0000
0000
,
0000
0000
0000
0000
,
0100
0000
0100
0000
,
0100
0100
0100
0100
,
0100
0000
0000
0000
,
0100
0000
0001
1000
,
0100
0000
0000
0000
,
0010
0001
0010
0001
,
0100
0000
0000
0000
,
0001
0000
1000
0001
,
1000
0000
0100
0000
,
0000
0000
0100
0000
,
1001
0000
1001
0000
,
0100
1000
0100
1000
,
0000
1001
0000
1001
,
0000
0100
0010
0001
,
1001
0000
1001
0000
,
0010
0000
0100
0010
,
0000
1001
0000
1001
,
0000
0000
1001
0000
,
1001
0010
1000
0100
,
0000
0001
0100
0000
,
0001
1000
0100
0000
,
0001
0100
0000
0000
,
0100
0001
0000
0001
,
0100
0010
0000
0001
,
1000
0010
1000
0010
,
1000
0001
0100
0000
,
0101
0100
0100
0100
,
0010
0000
0100
0000
,
1000
0001
0100
0000
,
0100
0000
0010
0100
,
0010
0000
0100
0000
,
1000
0000
0001
0000
,
0100
0000
0010
0000
,
0010
0010
0010
0010
,
0001
0001
0001
0000
,
1000
0100
0010
0000
,
0100
0000
0100
0000
,
0001
0100
1000
0010
,
1000
1000
1000
0000
,
0010
0100
0010
0000
,
0001
0100
0001
0100
,
0001
0000
0001
0000
,
0010
0000
0000
0000
,
0010
0000
0000
0000
,
1000
0000
0000
0000
,
1000
0000
0000
0000
,
0100
0000
0000
0000
,
0100
0000
0000
0000
,
0001
0000
0001
0000
,
0001
0001
0001
0001
,
0001
1000
0001
0000
,
0001
1000
0001
0000
,
0001
1000
0001
0000
,
0001
1000
0001
0000
,
0010
0100
0010
0000
,
0010
0100
0010
0000
,
0010
0100
0010
0000
,
0010
0010
0010
0010
,
0110
0000
1001
0000
,
0000
0000
1001
1001
,
0100
0100
0100
0000
,
0010
0000
1000
0001
,
0100
0010
1000
0001
,
0000
0100
0000
0100
,
0000
0010
0010
0010
,
0000
0000
1001
0000
,
0110
0110
0110
0000
,
1001
0100
0100
0010
,
0100
0000
0001
0100
,
1000
0010
1000
0100
,
0100
0100
0100
0000
,
1001
0010
0100
0000
,
0010
0010
1000
0001
,
1000
0001
2002
3003;
